#TITLE:Nocturnes;
#SUBTITLE:Initiate;
#ARTIST:Jay Chou;
#TITLETRANSLIT:;
#SUBTITLETRANSLIT:;
#ARTISTTRANSLIT:;
#CREDIT:;
#BANNER:yq-bn.png;
#BACKGROUND:;
#LYRICSPATH:;
#CDTITLE:cdtitle.png;
#MUSIC:yequ.mp3;
#OFFSET:0.000;
#SAMPLESTART:100.000;
#SAMPLELENGTH:12.000;
#SELECTABLE:YES;
#BPMS:0.000=87.000;
#STOPS:;
#BGCHANGES:;
// cache tags:
#FIRSTBEAT:0.000;
#LASTBEAT:190.625;
#SONGFILENAME:Songs/Initiate/nocturnes/yequ.sm;
#HASMUSIC:1;
#HASBANNER:1;
#MUSICLENGTH:134.878;
// end cache tags

//---------------dance-single - ----------------
#NOTES:
     dance-single:
     :
     Hard:
     6:
     0.719,0.724,1.000,0.074,0.523,469.000,198.000,10.000,0.000,7.000:
0001
0100
0011
0000
0100
1000
0000
0100
0000
0000
1001
0000
0010
0100
0000
0000
,
0000
0000
1000
0000
1000
0100
0000
0001
0000
0010
1010
0000
0100
0010
0000
0000
,
0000
0000
0001
0000
1000
0010
0000
0000
0000
0001
1010
0000
1000
0000
0101
0000
,
0001
0000
1010
0000
0100
0010
0000
0100
0000
0000
1001
0000
1001
0000
0101
0000
,
0001
0000
0100
0000
0100
1000
0101
0000
1000
0000
0101
0000
0101
1000
0101
0000
,
0010
0000
0101
0000
0101
1000
0101
0000
1000
0000
1010
0000
1010
0001
1010
0000
,
0001
0000
0101
0000
0101
1000
0101
0000
0010
0000
0101
0000
0101
0000
0101
0000
,
0001
1010
1010
1010
1000
0101
0101
0101
,
0100
0010
1001
0000
0100
0000
1010
0100
1000
0000
0100
0010
0001
0010
0101
0000
,
0001
0000
0010
0000
0100
0000
1001
0000
0101
0000
0011
1000
0101
0010
1001
0000
,
0101
0000
0010
0000
0100
0010
0101
0000
1000
0100
0010
0000
0001
0000
0101
0000
,
1000
0000
0101
0010
1000
0000
0101
0010
0101
1000
0101
0000
1000
0000
0101
0000
,
0010
0000
0101
0010
1000
0010
0101
1000
0001
0010
0110
0000
0110
0000
1000
0001
,
0010
0100
1001
0000
0010
0000
1000
0001
0010
0001
1000
0001
0010
0000
1001
0000
,
0110
0000
1001
1000
0100
0010
0101
0010
0001
0010
0101
1000
0100
0010
0101
0010
,
1100
0010
0101
0000
0101
0000
1000
0100
0000
0000
0101
0000
0101
0000
1010
0000
,
0001
0000
0110
0000
0001
0010
0101
0010
0001
0000
1100
0100
0100
0100
1100
0000
,
1000
0100
0011
0000
0001
0010
1100
0010
0001
0000
0101
0100
0100
0100
0101
0000
,
0001
0010
0101
0000
0010
0100
1001
0010
0000
1000
0100
0010
0001
0010
1100
0001
,
0100
0000
2000
3000
1000
0001
0110
0001
1000
0001
0110
0001
1000
0001
0101
0001
,
0101
0001
0101
0000
1000
0000
1010
0001
0100
0010
0101
0000
0020
0000
1031
0001
,
0101
0000
0002
0000
0110
0000
0003
0000
1000
0000
0100
0000
1010
0000
0001
0000
0100
0000
0000
0000
1000
0001
0100
0000
1000
0001
0100
0000
0010
0000
0000
0000
,
0002
0000
0000
0000
1013
0000
0000
0000
0101
0010
1000
0010
0101
1000
0010
0000
0101
0000
0000
0000
2001
0000
0010
0000
3101
0000
0001
0000
0101
0000
0001
0000
,
0101
0000
1000
0100
0010
0001
0110
0000
0100
0000
0110
0000
1001
0000
1002
0000
,
1000
0100
0013
0000
0010
0100
0000
0001
0000
0000
1000
0000
0010
0100
1001
0000
,
0000
0000
0102
0000
1003
0100
1001
0010
0000
0001
0100
0000
0001
2000
0101
3000
,
0000
0000
0101
0000
0010
1000
0101
0000
0100
0000
0001
0000
0010
0100
1001
0000
,
0100
0000
1001
0000
0100
0010
0000
0100
0000
0000
0020
0000
0000
0000
1031
0000
,
0000
0000
0101
0000
0100
0010
1100
0000
1000
0000
0101
0000
0010
0100
1100
0000
,
0001
0000
1100
0000
0100
1000
0011
1000
0000
0100
1001
0000
1000
0100
0011
0000
,
0000
0000
0101
0000
0100
0010
0000
1000
0000
0000
0100
0000
0001
0100
0000
0001
,
0000
0200
0000
0000
0000
0301
0000
1001
,
0100
1001
0000
1001
0000
0101
0000
0101
,
0000
0101
0000
0101
1000
1100
1100
1100
,
0000
0101
0000
0101
0000
0011
0011
0011
,
0000
1010
0000
1010
0101
1100
0000
1100
,
0000
0110
0000
0110
1001
0101
0101
0101
,
0000
1010
0000
1010
0000
1001
1001
1001
,
0000
1001
0000
1001
0101
1010
0100
1010
,
0000
0101
0000
0101
1001
1001
1001
1111
,
0100
0010
1001
0000
0100
0000
1010
0100
1000
0000
0101
0010
0001
0010
1100
0000
,
0001
0000
1010
0000
0100
0000
1001
0000
0101
0000
0011
1000
0101
0010
1001
0000
,
0101
0000
1010
0000
0100
0010
0101
0000
1000
0100
1010
0000
0001
0000
0101
0000
,
1000
0000
0101
0010
1000
0000
0101
0010
0101
1000
0101
0000
1000
0000
0101
0000
,
0010
0000
0101
0010
1000
0010
0101
1000
0001
0010
0110
0000
0110
0000
1001
0001
,
0010
0100
1001
0000
0101
0000
1100
0001
0010
0001
1100
0001
0010
0000
1001
0000
,
0110
0000
1001
0010
0100
1000
0101
0010
0001
0010
0101
1000
0100
0010
0101
0010
,
1100
0000
0010
0000
0101
0000
0000
0000
0101
0000
0000
0000
1001
0000
0010
0000
0000
0000
0000
0000
0101
0010
0000
0000
0000
0000
0000
0000
0000
0000
0000
0000
;
